Quick Browse
Movies
TV shows
Music
Games
Applications
Anime
Other

Latest Articles

Friends
RARBG
Torrents.me
Torrent Download
Movie4u
1337x
Torrent Downloads

LimeTorrents

Verified torrent Pyewacket (2018) 720p HDRip x264 AAC by Full4movies


    Seeders : 0      Leechers : 0

Hash :0F0F4AF74227D106FDA77A14976278C09AB17D7B
Added :40 minutes ago by India4movieVerified torrent uploader in Movies
Size :649.07 MB
Stream :Watch Online Full Movie @ Movie4u
Share :










Note :

Please Update (Trackers Info) Before Downloading Torrents to See Updated Seeders And Leechers for Batter Download Speed.

Trackers List

Tracker NameLast CheckStatusSeedersLeechers




Torrent File Content (1 file)


     Pyewacket (2018) 720p HDRip x264 AAC by Full4movies.mkv -
649.07 MB



Description



http://extraimage.net/images/2018/07/12/2a6da8b36c706eceeedf313e989c8d2b.jpg


General
Complete name : Pyewacket (2018) 720p HDRip x264 AAC by Full4movies.mkv
Format : Matroska
Format version : Version 4 / Version 2
File size : 649 MiB
Duration : 1 h 28 min
Overall bit rate : 1 031 kb/s
Movie name : www.Full4movies.co
Encoded date : UTC 2018-07-12 08:49:05
Writing application : mkvmerge v8.1.0 ('Psychedelic Postcard') 32bit
Writing library : libebml v1.3.1 + libmatroska v1.4.2

Video
ID : 1
Format : AVC
Format/Info : Advanced Video Codec
Format profile : [email protected]
Format settings, CABAC : Yes
Format settings, RefFrames : 4 frames
Codec ID : V_MPEG4/ISO/AVC
Duration : 1 h 28 min
Bit rate : 920 kb/s
Width : 1 280 pixels
Height : 536 pixels
Display aspect ratio : 2.40:1
Frame rate mode : Constant
Frame rate : 23.976 (24000/1001) FPS
Color space : YUV
Chroma subsampling : 4:2:0
Bit depth : 8 bits
Scan type : Progressive
Bits/(Pixel*Frame) : 0.056
Stream size : 579 MiB (89%)
Writing library : x264 core 152 r2851 ba24899
Default : Yes
Forced : No

Audio
ID : 2
Format : AAC
Format/Info : Advanced Audio Codec
Format profile : LC
Codec ID : A_AAC
Duration : 1 h 28 min
Bit rate : 109 kb/s
Channel(s) : 2 channels
Channel positions : Front: L R
Sampling rate : 48.0 kHz
Frame rate : 46.875 FPS (1024 SPF)
Compression mode : Lossy
Delay relative to video : -21 ms
Stream size : 68.8 MiB (11%)
Language : English
Default : Yes
Forced : No

Screen Shoots
http://extraimage.net/images/2018/07/12/6f5f2b8733d5591164e2b38b76426afc.jpg

Related torrents

Torrent NameAddedSizeSeedLeechHealth
Verified torrent
1 hour ago - in Movies753.62 MB00
Verified torrent
1 hour ago - in Movies1 GB00
Yesterday - in Movies744 MB15
Verified torrent
6 days ago - in Movies689.04 MB40
Verified torrent
7 days ago - in Movies653.97 MB62

Note :

Feel free to post any comments about this torrent, including links to Subtitle, samples, screenshots, or any other relevant information. Please Dont Download anything from Comments, And Dont Post Links to Streaming Sites like Fmovies, Xmovies8, 123Movies, GoMovies, CMovieshd, Solarmovie, Watchfree, Putlockers, GoStream, m4ufree etc.

Comments (0 Comments)




Please login or create a FREE account to post comments

Latest Searches

| mms 2018 | predators 1987 | ivy sherwood 2016 | reggaeton nuevo 2017 | Geografia Fisica ITA Strahler pdf | atk hairy beautiful desi neela 720p mp4 | How Not To Summon A Demon Lord E02 WEB x264 DARKFLiX | the handmaids tale ntb s01e06 | House S05E03 HDTV | Jamie Foxx show season 1 | JOI JOE Encouragement | laura kaye hard to hold | t spast | the big me | Ember Il mistero della citta di luce ita |