Quick Browse
Movies
TV shows
Music
Games
Applications
Anime
Other

Latest Articles

Friends
RARBG
Torrents.me
Torrent Download
Movie4u
1337x
Torrent Downloads

LimeTorrents

Verified torrent Badmaash (2018) 720p Hindi Dubbed HDRip x264 AAC by Full4movies


    Seeders : 0      Leechers : 0

Hash :8ADBC1654D0ABBF5B85C17B5DB24475407984C11
Added :Last Month by India4movieVerified torrent uploader in Movies
Size :991.29 MB
Stream :Watch Online Full Movie @ Movie4u
Share :









Note :

Please Update (Trackers Info) Before Downloading Torrents to See Updated Seeders And Leechers for Batter Download Speed.

Trackers List

Tracker NameLast CheckStatusSeedersLeechers




Torrent File Content (1 file)


     Badmaash (2018) 720p Hindi Dubbed HDRip x264 AAC by Full4movies.mkv -
991.29 MB



Description



http://ambrosiia.com/wp-content/uploads/2017/01/14102586_1093536124058150_3368366202113877762_n.jpg


General
Complete name : Badmaash (2018) 720p Hindi Dubbed HDRip x264 AAC by Full4movies.mkv
Format : Matroska
Format version : Version 4 / Version 2
File size : 991 MiB
Duration : 1 h 38 min
Overall bit rate : 1 402 kb/s
Movie name : www.Full4movies.co
Encoded date : UTC 2018-06-13 07:46:35
Writing application : mkvmerge v8.1.0 ('Psychedelic Postcard') 32bit
Writing library : libebml v1.3.1 + libmatroska v1.4.2

Video
ID : 1
Format : AVC
Format/Info : Advanced Video Codec
Format profile : [email protected]
Format settings, CABAC : Yes
Format settings, RefFrames : 3 frames
Codec ID : V_MPEG4/ISO/AVC
Duration : 1 h 38 min
Bit rate : 1 274 kb/s
Width : 1 280 pixels
Height : 720 pixels
Display aspect ratio : 16:9
Frame rate mode : Constant
Frame rate : 25.000 FPS
Color space : YUV
Chroma subsampling : 4:2:0
Bit depth : 8 bits
Scan type : Progressive
Bits/(Pixel*Frame) : 0.055
Stream size : 901 MiB (91%)
Default : Yes
Forced : No
Color range : Limited
Color primaries : BT.709
Transfer characteristics : BT.709
Matrix coefficients : BT.709

Audio
ID : 2
Format : AAC
Format/Info : Advanced Audio Codec
Format profile : LC
Codec ID : A_AAC
Duration : 1 h 38 min
Bit rate : 126 kb/s
Channel(s) : 2 channels
Channel positions : Front: L R
Sampling rate : 44.1 kHz
Frame rate : 43.066 FPS (1024 SPF)
Compression mode : Lossy
Stream size : 88.8 MiB (9%)
Language : Hindi
Default : Yes
Forced : No

Screen Shoots
http://extraimage.net/images/2018/06/14/b42ecc31363efc08953ccc793b984a0e.jpg

Related torrents

Torrent NameAddedSizeSeedLeechHealth
Verified torrent
Last Month - in Movies1017.14 MB00
Verified torrent
Last Month - in Movies941.88 MB00
Verified torrent
Last Month - in Movies986.56 MB10
Verified torrent
Last Month - in Movies1.08 GB10
Verified torrent
Last Month - in Movies1.11 GB00
Verified torrent
Last Month - in Movies776.99 MB10

Note :

Feel free to post any comments about this torrent, including links to Subtitle, samples, screenshots, or any other relevant information. Please Dont Download anything from Comments, And Dont Post Links to Streaming Sites like Fmovies, Xmovies8, 123Movies, GoMovies, CMovieshd, Solarmovie, Watchfree, Putlockers, GoStream, m4ufree etc.

Comments (0 Comments)




Please login or create a FREE account to post comments

Latest Searches

| The Field of Blood S02E01 hdtv x264 | Lightroom 3 Ke | vmware esx 4 0 | living with monkeys | S M Reine The Descent 3 | freier fall subs | Open For Business starr | allison epub | picasa3 setup rar | mp4 blaze | big tit school girl | Cayla Lyons Lexi Dona | Continuum season 2 episode 11 | prince of the rap | Wesley Pipes Rico Strong |