Quick Browse
Movies
TV shows
Music
Games
Applications
Anime
Other

Latest Articles

Friends
RARBG
Torrents.me
Torrent Download
Movie4u
1337x
Torrent Downloads

LimeTorrents

Verified torrent Angrezi Mein Kehte Hain (2018) HDRip x264 AAC by Full4movies


    Seeders : 0      Leechers : 0

Hash :764CC1B7E1AD1BA4CACC1A7C0A07B9D91A25FEAB
Added :1 hour ago by India4movieVerified torrent uploader in Movies
Size :448.79 MB
Stream :Watch Online Full Movie @ Movie4u
Share :









Note :

Please Update (Trackers Info) Before Downloading Torrents to See Updated Seeders And Leechers for Batter Download Speed.

Trackers List

Tracker NameLast CheckStatusSeedersLeechers




Torrent File Content (1 file)


     Angrezi Mein Kehte Hain (2018) HDRip x264 AAC by Full4movies.mkv -
448.79 MB



Description



http://extraimage.net/images/2018/07/12/58a5082aa01127ba90156836d4eb4f41.jpg


General
Complete name : Angrezi Mein Kehte Hain (2018) HDRip x264 AAC by Full4movies.mkv
Format : Matroska
Format version : Version 4 / Version 2
File size : 449 MiB
Duration : 1 h 48 min
Overall bit rate : 580 kb/s
Movie name : www.Full4movies.co
Encoded date : UTC 2018-07-12 08:46:09
Writing application : mkvmerge v8.1.0 ('Psychedelic Postcard') 32bit
Writing library : libebml v1.3.1 + libmatroska v1.4.2

Video
ID : 1
Format : AVC
Format/Info : Advanced Video Codec
Format profile : [email protected]
Format settings, CABAC : Yes
Format settings, RefFrames : 5 frames
Codec ID : V_MPEG4/ISO/AVC
Duration : 1 h 48 min
Bit rate : 512 kb/s
Width : 720 pixels
Height : 304 pixels
Display aspect ratio : 2.35:1
Frame rate mode : Constant
Frame rate : 23.976 (23976/1000) FPS
Color space : YUV
Chroma subsampling : 4:2:0
Bit depth : 8 bits
Scan type : Progressive
Bits/(Pixel*Frame) : 0.098
Stream size : 397 MiB (89%)
Writing library : x264 core 148 r2643 5c65704
Default : Yes
Forced : No

Audio
ID : 2
Format : AAC
Format/Info : Advanced Audio Codec
Format profile : LC
Codec ID : A_AAC
Duration : 1 h 48 min
Bit rate : 64.2 kb/s
Channel(s) : 2 channels
Channel positions : Front: L R
Sampling rate : 48.0 kHz
Frame rate : 46.875 FPS (1024 SPF)
Compression mode : Lossy
Stream size : 49.7 MiB (11%)
Language : Hindi
Default : Yes
Forced : No

Screen Shooter

http://extraimage.net/images/2018/07/12/c3fb88bfc52e1cb7f4eca8599c1c60fd.jpg

Related torrents

Torrent NameAddedSizeSeedLeechHealth
Verified torrent
Last Month - in Movies444.21 MB10
13 hours ago - in Movies720.31 MB360
13 hours ago - in Movies720.31 MB162
15 hours ago - in Movies700.51 MB825
Verified torrent
18 hours ago - in Movies849.81 MB177346
9 hours ago - in Movies1.38 GB61139

Note :

Feel free to post any comments about this torrent, including links to Subtitle, samples, screenshots, or any other relevant information. Please Dont Download anything from Comments, And Dont Post Links to Streaming Sites like Fmovies, Xmovies8, 123Movies, GoMovies, CMovieshd, Solarmovie, Watchfree, Putlockers, GoStream, m4ufree etc.

Comments (0 Comments)




Please login or create a FREE account to post comments

Latest Searches

| 7 days in havana subs | marlowe marlowe | 24 axel braun parody | insidious 1 dts | the doctor blakes mysteries | hero Academia season 2 AnimeRG | sonic r sountrack | 23 jim carrey number | rhoades casting | Tchaik 1 | punishteens jayden | Spanked Redhead | Sphere 720p | Girls Best Friend 1 | Foundations of programming web security |